legend of zelda tokino soundtrack cd

Kokiri Forest (01:01).
Hyrule Field Main Theme (04:43).
Wav Peak level.6 Track keep2share jdownloader plugin outdated quality 100.0 Test CRC D0B3073B Copy CRC D0B3073B Copy OK Track 21 Filename 3d sexvilla 2 full crack updated C:ProgramfilerExact Audio CopyThe Legend of Zelda Ocarina Of Time21 - Koji Kondo - Market.Wav Peak level.6 Track quality.6 Test CRC 5B686102 Copy CRC 5B686102 Copy OK Track 30 Filename C:ProgramfilerExact Audio CopyThe Legend of Zelda Ocarina Of Time30 - Koji Kondo - Kakariko Village.Lost Woods 0:39.Water Temple 1:44.Meet Again Zelda (00:51).Spiritual Stone Get 0:16.
Wav Peak level.2 Track quality 100.0 Test CRC 5812B0F4 Copy CRC 5812B0F4 Copy OK Track 77 Filename C:ProgramfilerExact Audio CopyThe Legend of Zelda Ocarina Of Time77 - Koji Kondo - Ganondorf Battle.Kepora Gebora's Theme (01:00).Wav Peak level.5 Track quality 100.0 Test CRC 39D2B842 Copy CRC 39D2B842 Copy OK Track 75 Filename C:ProgramfilerExact Audio CopyThe Legend of Zelda Ocarina Of Time75 - Koji Kondo - Ganon's Castle Underground.Windmill Hut 0:52.Heart Container Get 0:05.